Discovery of Romance | topddl480p Subbed | Game Over, Man! (2018)

Собачье счастье (Александр Згуриди, Нана Клдиашвили) [1991, детский, VHSRip] 

Цитировать
Собачье счастье Год выпуска: 1991.
Жанр: детский.
Продолжительность: 01:05:38.
Режиссеры: Александр Згуриди, Нана Клдиашвили.
В ролях:
Дима Мосолов, Александр Овчинников, Николай Ермаков, Надежда Бутырцева, Олег Вавилов, Светлана Коркошко, Михаил Зимин, Геннадий Кочкожаров, Юрий Саранцев, Мария Скворцова.
Описание:
Пудель по кличке Малыш увязался за своим маленьким хозяином в школу, но там был выдворен на школьный двор и потерялся. Андрей и его родители искали Малыша по всему городу, но тот как в воду канул.
Доп. информация:
Страна: СССР .
Киностудия: Центрнаучфильм, "Орбита".
Авторы сценария: Нана Клдиашвили, Александр Згуриди.
Оператор: Александр Павлов.
Композитор: Андрей Петров.
Художник: Лев Грудев.
Премьера: июнь 1992 года.

Релиз
Огромное спасибо Ellies731 за старую кассету и видеозахват!!!
Работа с исходником, вырезание рекламы с аомощью программы Avidemux 2.6.21.
Качество, конечно, не идеальное, но других вариантов пока не найдено.


Качество: VHSRip
Формат: mpg
Видео: 720x576, 25.000 fps, mpeg2, ~8000 kbps, 0.772 bit/pixel*frame
Аудио: 48 kHz, MPEG Audio, 2/0 (L,R) ch, ~224 kbps

Отчет MI

General
Complete name : Soba4'e.s4ast'e.1991.mpeg2.VHSRip.PAL.fenixclub.mpg
Format : MPEG-PS
File size : 3.84 GiB
Duration : 1h 5mn
Overall bit rate : 8 378 Kbps
Video
ID : 224 (0xE0)
Format : MPEG Video
Format version : Version 2
Format profile : Main@Main
Format settings, BVOP : Yes
Format settings, Matrix : Default
Format settings, GOP : M=3, N=12
Duration : 1h 5mn
Bit rate : 8 000 Kbps
Width : 720 pixels
Height : 576 pixels
Display aspect ratio : 4:3
Frame rate : 25.000 fps
Standard : PAL
Color space : YUV
Chroma subsampling : 4:2:0
Bit depth : 8 bits
Scan type : Progressive
Compression mode : Lossy
Bits/(Pixel*Frame) : 0.772
Time code of first frame : 00:00:00:00
Time code source : Group of pictures header
GOP, Open/Closed : Closed
Stream size : 3.66 GiB (95%)
Color primaries : BT.601 PAL
Transfer characteristics : BT.470 System B, BT.470 System G
Matrix coefficients : BT.601
Audio
ID : 192 (0xC0)
Format : MPEG Audio
Format version : Version 1
Format profile : Layer 2
Duration : 1h 5mn
Bit rate mode : Constant
Bit rate : 224 Kbps
Channel(s) : 2 channels
Sampling rate : 48.0 KHz
Compression mode : Lossy
Delay relative to video : 140ms
Stream size : 105 MiB (3%)
Menu

Скриншоты


Торрент перезалит 11.09.2017 22:57 в связи с заменой рипа.
Вы не можете начинать темы
Вы не можете отвечать на сообщения
Вы не можете редактировать свои сообщения
Вы не можете удалять свои сообщения
Вы не можете голосовать в опросах
Вы не можете прикреплять файлы к сообщениям
Вы можете скачивать файлы
!ВНИМАНИЕ!

Сайт не предоставляет электронные версии произведений, а занимается лишь коллекционированием и каталогизацией ссылок, присылаемых и публикуемых на форуме нашими читателями. Если вы являетесь правообладателем какого-либо представленного материала и не желаете, чтобы ссылка на него находилась в нашем каталоге, свяжитесь с нами, и мы незамедлительно удалим ее. Файлы для обмена на трекере предоставлены пользователями сайта, и администрация не несет ответственности за их содержание. Просьба не заливать файлы, защищенные авторскими правами, а также файлы нелегального содержания!

Искали программы, игры, дополнения, музыка mp3, аниме, аудио книги, журналы? Добро пожаловать на свободный торрент трекер Torrents, у нас можно скачать бесплатно, без смс и регистрации и прочих ограничений лучшие, отборные сборки программ, игр. Скачать торрентом не составит труда даже не опытному пользователю. Раздачи ежедневно обновляются, только лучшие и качественные раздачи, подробные описания и скриншоты. Огромная коллекция программ для работы со звуком, графикой, дизайном, а так же множество плагинов и инструментов к ним с подробной инструкцией и рекомендациями. Прошивки для навигаторов, карты. Разнообразные игры, для Windows, Linux. В коллекцие есть и старые игры любых жанров, Rpg, Action, Shooter, strategy Множество дополнений, модификаций, сценариев для популярных игр в жанре экш, рпг, гонки, стратегии, логические игры. Множество аддонов и сценариев для Microsoft Flight Simulator Большая коллекция книг, учебников. Если нет возможности купить печатное издание - смело скачивайте цифровую версию книги или, быть может, журнала. Не любите читать - можно загрузить бесплатно аудикнигу. Для веб дизайнеров и программистов так же найдется множество специализированного софта, таких как: редакторы с подсветкой, среды программирования, компоненты, системы управления базами данных, разнообразные скрипты и шаблоны. Не так давно у нас появился материал для автолюбителей и владельцев мото - оригинальные и неоригинальные каталоги запчастей, книги и журналы по ремонту и обслуживанию, видеоуроки, статьи по чип тюнингу, прошивкам. Процедура получения контента элементарная, достаточно просто скачать торрент файл и добавить его в загрузку в вашем торрент клиенте. Если у вас нет специального торрент клиента, вы можете его скачать у нас.